Pinoy Addicts Forum
WELCOME TO WWW.PINOYADDICTS.TK

anyone can view our threads but
To get full access in this site
REGISTER IN ONE CLICK!
thank you!

Harry Potter and the Deathly Hallows Part 2 (2011)

View previous topic View next topic Go down

Harry Potter and the Deathly Hallows Part 2 (2011)

Post by khilven2011 on Fri Jul 15, 2011 3:08 am

[quote='marshmallow23' pid='162577' dateline='1310641962']
[align=center]

IMDBLINK
Code:
http://www.imdb.com/title/tt1201607

PLOTOUTLINE
Code:
The final chapter begins as Harry, Ron, and Hermione continue their quest of finding and destroying the Dark Lord's three remaining Horcruxes, the magical items responsible for his immortality. But as the mystical Deathly Hallows are uncovered, and Voldemort finds out about their mission, the biggest battle begins and life as they know it will never be the same again.

INFORMATION
Code:
General
Complete name : Harry.Potter.and.the.Deathly.Hallows.Part.2.2011.TS.XviD.AC3-P2P.avi
Format : AVI
Format/Info : Audio Video Interleave
File size : 1.46 GiB
Duration : 1h 56mn
Overall bit rate : 1 789 Kbps
Writing application : VirtualDubMod 1.5.10.3 | www.virtualdub-fr.org || (build 2550/release)
Writing library : VirtualDubMod build 2550/release

Video
ID : 0
Format : MPEG-4 Visual
Format profile : Advanced Simple@L5
Format settings, BVOP : 2
Format settings, QPel : No
Format settings, GMC : No warppoints
Format settings, Matrix : Default (MPEG)
Codec ID : XVID
Codec ID/Hint : XviD
Duration : 1h 56mn
Bit rate : 1 651 Kbps
Width : 720 pixels
Height : 304 pixels
Display aspect ratio : 2.35:1
Frame rate : 25.000 fps
Color space : YUV
Chroma subsampling : 4:2:0
Bit depth : 8 bits
Scan type : Progressive
Compression mode : Lossy
Bits/(Pixel*Frame) : 0.302
Stream size : 1.35 GiB (92%)
Writing library : XviD 1.2.1 (UTC 2008-12-04)

Audio [RUS]
ID : 1
Format : AC-3
Format/Info : Audio Coding 3
Mode extension : CM (complete main)
Codec ID : 2000
Duration : 1h 56mn
Bit rate mode : Constant
Bit rate : 128 Kbps
Channel(s) : 2 channels
Channel positions : Front: L R
Sampling rate : 48.0 KHz
Bit depth : 16 bits
Compression mode : Lossy
Stream size : 107 MiB (7%)
Alignment : Split accross interleaves
Interleave, duration : 40 ms (1.00 video frame)
Interleave, preload duration : 500 ms

SCREENS

DOWNLOAD

WUPLOAD
Code:
http://www.wupload.com/file/56813336
http://www.wupload.com/file/56812725
http://www.wupload.com/file/56812728
http://www.wupload.com/file/56812030

FILESONIC
Code:
http://www.filesonic.com/file/1443145231
http://www.filesonic.com/file/1443141171
http://www.filesonic.com/file/1443145251
http://www.filesonic.com/file/1443130261

[size=medium]HURRY UP BFORE THE LINK REMOVE[/size]
[/align]





[/quote]


khilven2011
Member
Member

Posts : 89
Level : 55
Join date : 2011-07-05

View user profile

Back to top Go down

Re: Harry Potter and the Deathly Hallows Part 2 (2011)

Post by khilven2011 on Sat Jul 16, 2011 12:01 pm

WAG NAMAN KAYO PURO VIEW MAGPOST NAMAN KAYO. PARANG YATA TAO DITO.

khilven2011
Member
Member

Posts : 89
Level : 55
Join date : 2011-07-05

View user profile

Back to top Go down

Re: Harry Potter and the Deathly Hallows Part 2 (2011)

Post by shenboi on Wed Jul 20, 2011 3:41 pm

!!!wahahahaha, file has been deleted na pohw!!!

shenboi
Member
Member

Posts : 2
Level : -3
Join date : 2011-06-19

View user profile

Back to top Go down

Re: Harry Potter and the Deathly Hallows Part 2 (2011)

Post by drixxx on Fri Jul 22, 2011 3:35 am

wala bang new link?

drixxx
Member
Member

Posts : 1
Level : 0
Join date : 2011-07-02

View user profile

Back to top Go down

Re: Harry Potter and the Deathly Hallows Part 2 (2011)

Post by ATOR SPUTNIK on Sun Jul 31, 2011 11:29 am

Evil
WATCH MODE LANG MGA TAO D2 HAHAHAHA

ATOR SPUTNIK
Moderator
Moderator

Posts : 134
Level : 101
Join date : 2011-02-02
Age : 31
Location : CEBU CITY

View user profile

Back to top Go down

Re: Harry Potter and the Deathly Hallows Part 2 (2011)

Post by khilven2011 on Thu Aug 25, 2011 1:29 am

Puro kasi kayo view..

khilven2011
Member
Member

Posts : 89
Level : 55
Join date : 2011-07-05

View user profile

Back to top Go down

Re: Harry Potter and the Deathly Hallows Part 2 (2011)

Post by Sponsored content Today at 5:56 pm


Sponsored content


Back to top Go down

View previous topic View next topic Back to top

- Similar topics

 
Permissions in this forum:
You cannot reply to topics in this forum